#TITLE:Brand New World;
#SUBTITLE:SDO China lv 13 - [N]hok[Q] Simfile;
#ARTIST:D-51;
#TITLETRANSLIT:;
#SUBTITLETRANSLIT:;
#ARTISTTRANSLIT:;
#CREDIT:[N]hok[Q];
#BANNER:bn.png;
#BACKGROUND:bg.png;
#LYRICSPATH:;
#CDTITLE:cd.png;
#MUSIC:Brand New World.mp3;
#OFFSET:-0.075;
#SAMPLESTART:37.575;
#SAMPLELENGTH:12.000;
#SELECTABLE:YES;
#BPMS:0.000=160.000;
#STOPS:;
#BGCHANGES:;
// cache tags:
#FIRSTBEAT:8.000;
#LASTBEAT:352.000;
#SONGFILENAME:Songs/SDO pack 4/Brand New World/Brand New World.sm;
#HASMUSIC:1;
#HASBANNER:1;
#MUSICLENGTH:133.392;
// end cache tags

//---------------dance-single - ----------------
#NOTES:
     dance-single:
     :
     Hard:
     13:
     1.000,1.000,1.000,0.255,0.394,700.000,264.000,34.000,0.000,32.000:
0000
0000
0000
0000
,
0000
0000
0000
0000
,
1100
0011
0000
0000
0000
0000
0000
0000
,
0110
1001
0000
0000
0000
0000
0000
0000
,
0101
1010
0000
0000
0000
0000
0000
0000
,
0011
0000
0000
0000
1000
0000
1100
0000
0000
0000
0110
0000
1000
0100
0010
0001
,
1100
0001
0010
0100
0010
0100
1000
0001
0100
1000
0010
0001
1000
0100
0010
0000
,
0011
1000
0100
0010
0001
0100
0010
0001
1000
0010
0001
0100
0010
0001
0100
1000
,
0110
0001
0010
0100
0010
0100
1000
0100
1000
0100
0010
0001
0010
0100
1000
0000
,
1001
0010
0100
1000
0001
0010
0100
1000
0011
0100
1001
0100
0001
0010
0100
1000
,
0111
1000
0100
0001
0110
0001
0100
0010
,
0101
1000
0001
0100
1010
0100
1000
0001
,
0110
0001
0010
1000
0101
1000
0001
0010
,
1001
0100
0010
0001
1100
0010
0100
0001
,
0110
1000
0001
0010
1001
0100
1000
0010
,
1001
0100
0010
0001
0101
1000
0010
0100
,
0011
0010
1000
0100
1010
0001
0010
0001
,
0110
1000
0010
0001
1001
1001
1001
0000
,
0011
0100
0001
1000
0110
0001
0100
0010
,
0101
0001
0010
1000
1001
0100
0010
1000
,
1100
0001
0010
0001
0110
1000
0010
0001
,
0101
0010
1000
0001
0110
1000
0100
0001
,
0011
1000
0100
1000
1001
0010
0001
0100
,
0011
1000
0010
0001
0110
0010
1000
0100
,
1001
1000
0010
0100
1001
0010
1000
0100
,
1100
0001
0100
0010
1100
1100
1100
0000
,
1012
0000
0000
0123
0000
0000
1030
0000
,
0000
0110
0011
1001
0110
1010
0101
1001
,
2110
0000
0000
3210
0000
0000
0301
0000
,
0000
1100
0011
1010
0101
0110
1001
0110
,
1102
0000
0000
0213
0000
0000
0321
0000
,
0000
2130
0000
0000
3011
0000
0110
0000
,
2100
0000
0010
0001
0100
0000
0001
0010
0100
0000
0010
0001
3100
0000
0001
0010
,
1000
0000
0010
0000
0001
0010
0100
1000
0001
0010
0101
1000
0001
0010
0100
1000
,
0012
1000
0010
0100
1000
0100
0010
0100
,
2013
0100
0010
0100
0001
0010
0100
0010
,
3102
1000
0010
0100
1000
0100
0010
0100
,
2013
0100
0001
0010
0100
0001
0010
0100
,
3012
0100
1000
0010
0100
0010
1000
0100
,
2013
0100
0010
0001
0100
0001
0010
0100
,
3012
0100
0010
0100
1000
0100
0010
0100
,
1003
0100
0001
1000
0011
0011
0011
0000
,
1110
1000
0011
0100
1010
0100
0011
0100
,
1010
0100
1001
0010
1100
0010
0101
1000
,
0110
0001
1010
0100
1001
0010
1100
0010
,
0101
0010
1001
0100
0011
0100
1010
0100
,
1001
0010
1100
0001
0110
1000
0101
0010
,
1100
0001
0101
0010
1001
0100
0011
0100
,
1001
0010
1100
0010
0101
0010
1001
0010
,
1100
0010
0101
1000
0110
0001
1010
0100
,
1001
0010
1100
0010
0101
1000
0110
1000
,
0101
0010
1001
0100
1010
0100
0011
0100
,
1000
0010
0010
0000
0001
0100
0100
0000
0010
1000
1000
0000
0100
0001
0001
0000
,
1000
0010
0100
0001
1000
0010
0100
0001
1000
0010
0100
0001
1000
0010
0100
0001
,
2000
0000
0000
0001
0001
0000
3002
0000
0000
0000
0000
0000
0103
0000
0000
0000
,
0000
0000
0100
0100
0000
0000
1000
0100
0010
0001
0010
0100
1000
0100
0010
0001
,
2010
0000
0000
0000
0000
0000
3012
0000
0100
0010
0100
0010
0103
0000
0000
0000
,
0000
0000
0000
1000
0100
0001
0010
0001
,
2100
0010
0100
3012
0100
0010
1003
0100
,
0010
0000
0000
0000
1000
0000
0001
0000
0001
0010
0100
1000
0001
0000
0000
0000
,
0000
0000
1000
0100
0010
0001
1100
0000
2100
0000
0000
0000
0000
0000
3011
0000
,
0001
1000
0010
0100
0001
1000
0010
0100
0001
1000
0010
0100
0001
1000
0010
0100
,
2011
0000
0000
3021
0000
0000
1030
0000
,
0000
0011
0110
1010
0101
1100
0011
1001
,
1120
0000
0000
2130
0000
0000
3001
0000
,
0000
1010
0110
0011
1001
0101
0110
1001
,
1120
0000
0000
1230
0000
0000
0312
0000
,
0000
2103
0000
0000
3011
0000
0110
0000
,
2110
0000
0010
0000
0001
0000
3010
0011
,
0110
0000
1100
0000
1001
0000
0100
0010
1000
0001
0100
0010
1000
0001
1100
0000
,
0110
0000
0011
0000
1001
0000
0010
0001
1000
0100
0010
0001
1000
0100
0002
0000
,
0000
0000
2003
0000
,
3011
0110
1100
1010
0101
0011
1100
0110
,
1001
0110
0011
1100
0110
1001
0110
0011
,
1001
0110
0001
1010
1100
0011
0110
0011
,
1001
0110
1100
1010
0101
0110
1010
0100
,
0011
1100
0110
0001
1100
0011
0110
1001
,
1010
0101
0110
0011
1001
0110
1100
0011
,
1010
1100
0001
0110
0011
1100
0110
1001
,
1100
0001
0110
0011
1001
0110
1000
0110
,
0111
1100
0110
1010
0101
1010
0110
1100
,
0011
0110
1100
1001
0110
1100
0011
1100
,
0011
0000
1000
0010
0100
0001
1000
0000
1100
0000
0001
0100
0010
1000
0001
0000
,
0110
0000
1000
0010
0100
0001
0010
1000
0010
0001
0100
0010
1000
0001
0010
0100
,
1001
0011
0110
1010
1100
0110
1100
1001
,
0101
0110
1001
0110
0011
0101
1010
0110
,
0011
0000
1000
0010
0100
0001
1000
0000
1100
0000
0001
0100
0010
1000
0001
0000
,
0110
0000
1000
0010
0100
0001
0010
1000
0010
0001
0100
0010
1000
0001
0010
0100
,
1001
0000
0000
0000
;
